<?xml version="1.0" standalone="no"?>
<!DOCTYPE svg PUBLIC "-//W3C//DTD SVG 1.1//EN" "http://www.w3.org/Graphics/SVG/1.1/DTD/svg11.dtd" >
<svg xmlns="http://www.w3.org/2000/svg">
<metadata>Generated by IcoMoon</metadata>
<defs>
<font id="osmosis" horiz-adv-x="1024">
<font-face units-per-em="1024" ascent="960" descent="-64" />
<missing-glyph horiz-adv-x="1024" />
<glyph unicode="&#x20;" horiz-adv-x="512" d="" />
<glyph unicode="&#xe600;" glyph-name="plus" d="M928 480h-384v384c0 17.673-14.327 32-32 32s-32-14.327-32-32v-384h-384c-17.673 0-32-14.327-32-32s14.327-32 32-32h384v-384c0-17.673 14.327-32 32-32s32 14.327 32 32v384h384c17.673 0 32 14.327 32 32s-14.327 32-32 32z" />
<glyph unicode="&#xe601;" glyph-name="search" d="M689.941 722.607c-60.44 60.44-140.8 93.726-226.274 93.726s-165.834-33.286-226.274-93.726c-60.44-60.44-93.726-140.799-93.726-226.274s33.286-165.834 93.726-226.274c60.44-60.439 140.799-93.726 226.274-93.726 74.718 0 145.523 25.437 202.535 72.21l159.504-159.504c12.496-12.496 32.758-12.497 45.255 0s12.496 32.759 0 45.255l-159.504 159.504c46.773 57.012 72.21 127.818 72.21 202.535 0 85.475-33.286 165.834-93.726 226.274zM644.687 315.313c-99.814-99.814-262.224-99.814-362.039 0s-99.814 262.225 0 362.039c99.814 99.815 262.224 99.814 362.039 0s99.814-262.224 0-362.039z" />
<glyph unicode="&#xe602;" glyph-name="socials" d="M864 607.562h-192c-17.673 0-32-14.327-32-32s14.327-32 32-32h160v-415.562h-640v415.562h160c17.673 0 32 14.327 32 32s-14.327 32-32 32h-192c-17.673 0-32-14.327-32-32v-479.562c0-17.673 14.327-32 32-32h704c17.673 0 32 14.327 32 32v479.562c0 17.673-14.327 32-32 32zM371.99 679.012l108.010 86.408v-413.42c0-17.673 14.327-32 32-32s32 14.327 32 32v413.42l108.010-86.408c5.9-4.72 12.959-7.013 19.97-7.013 9.387 0 18.688 4.111 25.008 12.011 11.041 13.8 8.804 33.938-4.997 44.978l-160 128c-11.688 9.35-28.294 9.35-39.98 0l-160-128c-13.8-11.040-16.038-31.178-4.998-44.978s31.176-16.039 44.977-4.998z" />
<glyph unicode="&#xe603;" glyph-name="soundcloud" d="M53.626 428.131c-1.984 0-3.549-1.596-3.808-3.863l-6.938-54.77 6.938-53.834c0.259-2.277 1.824-3.854 3.808-3.854 1.923 0 3.479 1.576 3.788 3.832v0 0.012c0 0 0 0 0-0.012l8.225 53.855-8.225 54.779c-0.3 2.259-1.875 3.855-3.788 3.855zM92.661 458.057c-0.329 2.355-1.954 3.976-3.947 3.976-2.014 0-3.679-1.673-3.957-3.976 0-0.021-9.331-88.559-9.331-88.559l9.331-86.604c0.269-2.318 1.934-3.996 3.957-3.996 1.983 0 3.609 1.637 3.937 3.977l10.617 86.623-10.607 88.559zM239.68 539.749c-3.828 0-6.987-3.258-7.167-7.39l-7.437-162.944 7.437-105.295c0.189-4.111 3.339-7.363 7.167-7.363 3.808 0 6.968 3.264 7.187 7.395v-0.041l8.403 105.305-8.403 162.944c-0.22 4.131-3.38 7.389-7.187 7.389zM163.594 483.119c-2.94 0-5.343-2.44-5.583-5.696l-8.363-107.968 8.363-104.445c0.229-3.23 2.642-5.664 5.583-5.664 2.901 0 5.303 2.434 5.563 5.664l9.508 104.445-9.508 107.989c-0.261 3.235-2.662 5.675-5.563 5.675zM317.012 256.777c4.745 0 8.613 3.977 8.802 9.063l7.287 103.533-7.277 216.922c-0.189 5.091-4.057 9.068-8.802 9.068-4.784 0-8.653-3.988-8.802-9.079 0-0.009-6.469-216.912-6.469-216.912l6.469-103.566c0.149-5.052 4.018-9.029 8.792-9.029zM475.334 256.279c6.53 0 11.922 5.594 12.042 12.469v0l5.084 100.563-5.084 250.525c-0.109 6.861-5.512 12.464-12.042 12.464-6.548 0-11.95-5.592-12.051-12.475l-4.535-250.432c0-0.164 4.535-100.705 4.535-100.705 0.101-6.815 5.513-12.409 12.051-12.409zM395.57 256.674c5.682 0 10.267 4.742 10.427 10.791v-0.082l6.18 101.971-6.19 218.49c-0.159 6.043-4.745 10.771-10.427 10.771-5.721 0-10.307-4.728-10.437-10.771l-5.491-218.512 5.501-101.93c0.13-5.986 4.716-10.728 10.437-10.728zM201.492 257.625c3.38 0 6.111 2.816 6.37 6.525l8.961 105.305-8.961 100.195c-0.249 3.697-2.98 6.489-6.37 6.489-3.429 0-6.17-2.812-6.379-6.536l-7.895-100.148 7.895-105.305c0.218-3.709 2.95-6.525 6.379-6.525zM125.994 263.404c2.473 0 4.476 2.020 4.755 4.826l10.068 101.246-10.058 105.083c-0.289 2.813-2.292 4.836-4.765 4.836-2.501 0-4.495-2.040-4.755-4.836 0-0.011-8.861-105.083-8.861-105.083l8.861-101.225c0.249-2.815 2.243-4.847 4.755-4.847zM435.293 591.479c-6.17 0-11.124-5.101-11.244-11.636l-5.024-210.511 5.024-101.309c0.12-6.441 5.063-11.549 11.244-11.549 6.171 0 11.085 5.088 11.234 11.621v-0.082l5.632 101.297-5.632 210.554c-0.149 6.514-5.063 11.615-11.234 11.615zM278.207 256.559c4.266 0 7.785 3.615 7.994 8.234l7.835 104.6-7.835 200.198c-0.219 4.625-3.728 8.229-7.994 8.229-4.307 0-7.815-3.614-8.005-8.229 0-0.010-6.938-200.198-6.938-200.198l6.948-104.641c0.18-4.578 3.688-8.193 7.995-8.193zM365.746 266.43v0.063l6.738 102.861-6.738 224.238c-0.16 5.567-4.386 9.938-9.61 9.938-5.243 0-9.469-4.36-9.609-9.938l-5.98-224.218 5.99-102.924c0.14-5.52 4.366-9.881 9.599-9.881s9.43 4.361 9.61 9.902v-0.041zM875.274 498.612c-16 0-31.262-3.36-45.156-9.418-9.29 109.318-97.527 195.070-205.152 195.070-26.336 0-52.005-5.386-74.672-14.5-8.811-3.542-11.153-7.187-11.243-14.261v-384.974c0.1-7.414 5.643-13.598 12.609-14.332 0.299-0.031 321.521-0.197 323.604-0.197 64.463 0 116.736 54.299 116.736 121.307 0 66.985-52.253 121.305-116.726 121.305zM515.187 655.839c-7.007 0-12.768-5.98-12.867-13.329l-5.264-273.241 5.272-99.176c0.090-7.227 5.852-13.203 12.858-13.203 6.998 0 12.749 5.977 12.85 13.318v-0.115l5.732 99.176-5.732 273.262c-0.1 7.328-5.851 13.308-12.849 13.308z" />
<glyph unicode="&#xe604;" glyph-name="globe" d="M924.78 622.391c-22.565 53.352-54.863 101.259-95.997 142.392s-89.040 73.431-142.392 95.997c-55.252 23.37-113.925 35.22-174.391 35.22s-119.14-11.85-174.392-35.219c-53.352-22.566-101.259-54.864-142.392-95.997s-73.432-89.041-95.997-142.392c-23.369-55.253-35.219-113.927-35.219-174.392s11.85-119.14 35.219-174.392c22.565-53.352 54.864-101.26 95.997-142.393s89.041-73.431 142.392-95.997c55.252-23.368 113.927-35.218 174.392-35.218s119.139 11.85 174.392 35.219c53.352 22.566 101.259 54.864 142.392 95.997s73.432 89.041 95.997 142.393c23.369 55.251 35.219 113.925 35.219 174.391s-11.85 119.139-35.22 174.391zM894.672 480h-159.287c-2.727 71.152-14.563 140.149-35.299 205.527-13.745 43.335-31.011 83.934-51.605 121.417 135.044-51.519 233.776-177.174 246.191-326.944zM559.129 829.116c67.47-94.389 106.746-216.822 112.205-349.116h-318.505c6.142 132.793 46.405 255.442 115.067 349.482 14.474 1.663 29.191 2.518 44.104 2.518 15.953 0 31.681-0.985 47.129-2.884zM378.206 807.951c-21.781-38.818-39.955-81.041-54.292-126.245-20.364-64.206-32.142-131.905-35.14-201.706h-159.445c12.496 150.76 112.459 277.080 248.877 327.951zM129.329 416h159.153c2.443-72.502 14.326-142.801 35.433-209.348 13.156-41.479 29.541-80.446 48.98-116.578-133.698 52.14-231.233 177.13-243.566 325.926zM461.9 67.26c-66.294 94.723-104.607 216.938-109.389 348.74h318.823c-5.459-132.294-44.735-254.728-112.205-349.116-15.448-1.9-31.176-2.884-47.129-2.884-16.977 0-33.699 1.113-50.1 3.26zM648.48 89.056c20.595 37.483 37.86 78.081 51.605 121.417 20.736 65.378 32.572 134.375 35.299 205.527h159.287c-12.413-149.77-111.146-275.425-246.191-326.944z" />
<glyph unicode="&#xe605;" glyph-name="nav-right" d="M297.372-0.002c-8.189 0-16.379 3.124-22.628 9.372-12.496 12.497-12.496 32.759 0 45.256l393.373 393.372-393.373 393.372c-12.496 12.497-12.496 32.759 0 45.255 12.497 12.497 32.758 12.497 45.256 0l438.626-438.627-438.626-438.628c-6.25-6.248-14.439-9.372-22.628-9.372z" />
<glyph unicode="&#xe606;" glyph-name="nav-left" d="M726.627 896c8.189 0 16.379-3.124 22.628-9.372 12.496-12.497 12.496-32.759 0-45.256l-393.373-393.372 393.373-393.372c12.496-12.497 12.496-32.759 0-45.255s-32.758-12.497-45.256 0l-438.626 438.627 438.626 438.628c6.249 6.248 14.439 9.372 22.628 9.372z" />
<glyph unicode="&#xe607;" glyph-name="nav-up" d="M960 233.373c0-8.189-3.124-16.379-9.372-22.628-12.497-12.496-32.759-12.496-45.256 0l-393.372 393.372-393.373-393.372c-12.497-12.496-32.758-12.496-45.255 0s-12.497 32.758 0 45.256l438.628 438.626 438.628-438.626c6.248-6.249 9.372-14.439 9.372-22.628z" />
<glyph unicode="&#xe608;" glyph-name="menu" d="M160 672h704c17.673 0 32 14.327 32 32s-14.327 32-32 32h-704c-17.673 0-32-14.327-32-32s14.327-32 32-32zM864 480h-704c-17.673 0-32-14.327-32-32s14.327-32 32-32h704c17.673 0 32 14.327 32 32s-14.327 32-32 32zM864 224h-704c-17.673 0-32-14.327-32-32s14.327-32 32-32h704c17.673 0 32 14.327 32 32s-14.327 32-32 32z" />
<glyph unicode="&#xe609;" glyph-name="double-nav-left" d="M609.941 896c8.189 0 16.379-3.124 22.628-9.372 12.496-12.497 12.496-32.759 0-45.256l-393.373-393.372 393.373-393.372c12.496-12.497 12.496-32.759 0-45.255s-32.758-12.497-45.256 0l-438.626 438.627 438.626 438.628c6.25 6.248 14.439 9.372 22.628 9.372zM843.313 896c8.189 0 16.379-3.124 22.628-9.372 12.496-12.497 12.496-32.759 0-45.256l-393.373-393.372 393.373-393.372c12.496-12.497 12.496-32.759 0-45.255s-32.758-12.497-45.256 0l-438.626 438.627 438.627 438.628c6.249 6.248 14.438 9.372 22.627 9.372z" />
<glyph unicode="&#xe60a;" glyph-name="double-nav-right" d="M414.059 0c-8.189 0-16.379 3.124-22.628 9.372-12.496 12.497-12.496 32.759 0 45.256l393.373 393.372-393.373 393.372c-12.496 12.497-12.496 32.759 0 45.255 12.497 12.497 32.758 12.497 45.256 0l438.626-438.627-438.626-438.628c-6.249-6.248-14.439-9.372-22.628-9.372zM180.687 0c-8.189 0-16.379 3.124-22.628 9.372-12.496 12.497-12.496 32.759 0 45.256l393.373 393.372-393.373 393.372c-12.496 12.497-12.496 32.759 0 45.255s32.758 12.497 45.256 0l438.626-438.627-438.626-438.628c-6.249-6.248-14.439-9.372-22.628-9.372z" />
<glyph unicode="&#xe60b;" glyph-name="heart" d="M494.704 130.694l-245.129 254.702c-3.151 2.961-89.575 87.984-89.575 189.538 0 123.945 70.33 197.989 187.798 197.989 68.728 0 133.159-58.378 164.201-91.375 31.044 32.997 95.475 91.375 164.203 91.375 117.466 0 187.798-74.044 187.798-197.989 0-101.554-86.427-186.577-89.977-190.401l-244.726-253.839c-4.727-5.088-11.025-7.617-17.298-7.617-6.271 0-12.571 2.529-17.295 7.617z" />
<glyph unicode="&#xe60c;" glyph-name="pencil" d="M332.266 810.682l-182.305-182.305c-12.497-12.497-12.497-32.758 0-45.255l429.921-429.922c4.083-4.082 8.995-6.821 14.194-8.237 0.006-0.001 0.013-0.005 0.021-0.007l248.895-67.882c11.079-3.022 22.927 0.124 31.047 8.244s11.267 19.969 8.245 31.048l-65.508 240.203c0.424 8.702-2.688 17.546-9.334 24.191l-429.92 429.921c-12.498 12.498-32.759 12.498-45.256 0.001zM308.353 515.24l137.050 137.050 294.157-294.157-137.050-137.050-294.157 294.157zM354.894 742.8l45.255-45.255-137.050-137.050-45.255 45.255 137.050 137.050zM805.804 153.553l-141.675 38.641 103.038 103.036 38.637-141.677z" />
<glyph unicode="&#xe60d;" glyph-name="user" d="M512 0c-103.663 0-200.723 12.141-273.3 34.186-41.244 12.527-74.013 28.141-97.397 46.405-37.444 29.244-45.303 61.074-45.303 82.626 0 41.415 8.553 81.948 25.423 120.472 16.147 36.876 39.494 70.988 69.391 101.392 45.373 46.139 104.462 81.746 170.377 103.285-37.783 44.175-59.776 104.027-59.776 167.634 0 63.202 21.318 122.838 60.027 167.923 39.907 46.479 93.375 72.077 150.558 72.077s110.651-25.597 150.558-72.076c38.709-45.085 60.027-104.721 60.027-167.923 0-63.607-21.993-123.459-59.775-167.635 65.914-21.539 125.004-57.146 170.376-103.285 29.897-30.403 53.244-64.516 69.392-101.392 16.868-38.524 25.422-79.057 25.422-120.472 0-21.552-7.859-53.382-45.303-82.626-23.384-18.265-56.153-33.878-97.397-46.405-72.577-22.045-169.637-34.186-273.3-34.186zM512 832c-80.827 0-146.585-78.953-146.585-176 0-65.997 30.466-125.937 79.508-156.428 11.226-6.979 17.004-20.142 14.545-33.129s-12.65-23.126-25.65-25.519c-158.66-29.197-273.818-145.99-273.818-277.707 0-23.944 36.374-49.288 97.3-67.794 65.745-19.969 158.58-31.423 254.7-31.423s188.954 11.454 254.7 31.423c60.926 18.506 97.3 43.85 97.3 67.794 0 131.717-115.157 248.51-273.819 277.708-12.999 2.393-23.19 12.531-25.649 25.519s3.32 26.15 14.545 33.129c49.043 30.491 79.509 90.431 79.509 156.428-0.001 97.045-65.759 175.999-146.586 175.999z" />
<glyph unicode="&#xe60e;" glyph-name="link" d="M434.444 331.618c-47.976 0-95.603 18.012-131.748 54.157l-110.308 110.308c-73.301 73.301-72.032 193.839 2.829 268.701 74.862 74.86 195.399 76.128 268.7 2.829l110.308-110.309c12.497-12.497 12.497-32.758 0-45.255s-32.758-12.497-45.254 0l-110.309 110.308c-48.348 48.348-128.284 47.079-178.19-2.829s-51.176-129.844-2.829-178.191l110.309-110.309c48.346-48.346 128.282-47.078 178.191 2.829 12.495 12.496 32.756 12.495 45.255-0.001 12.496-12.496 12.496-32.758-0.001-45.255-37.947-37.945-87.635-56.983-136.953-56.983zM691.78 74.14c-49.975-0.002-96.656 19.208-131.697 54.249l-110.309 110.307c-12.497 12.497-12.497 32.759 0 45.255 12.497 12.498 32.758 12.497 45.255 0.001l110.309-110.31c23.312-23.311 54.594-35.916 88.104-35.493 33.81 0.428 65.803 14.038 90.087 38.321s37.893 56.277 38.32 90.086c0.424 33.504-12.181 64.793-35.492 88.105l-110.31 110.309c-48.348 48.348-128.283 47.078-178.19-2.829-12.497-12.497-32.758-12.497-45.255 0s-12.497 32.758 0 45.255c74.862 74.861 195.4 76.129 268.7 2.829l110.31-110.31c73.301-73.301 72.032-193.839-2.829-268.699-36.156-36.157-83.934-56.422-134.531-57.062-0.823-0.009-1.65-0.014-2.472-0.014z" />
<glyph unicode="&#xe60f;" glyph-name="close" d="M783.529 764.784l-271.529-271.529-271.529 271.529c-12.497 12.497-32.758 12.497-45.255 0s-12.497-32.758 0-45.255l271.529-271.529-271.529-271.529c-12.497-12.496-12.497-32.758 0-45.255s32.758-12.496 45.255 0l271.529 271.529 271.529-271.529c12.496-12.496 32.758-12.496 45.255 0s12.496 32.759 0 45.255l-271.529 271.529 271.529 271.529c12.496 12.497 12.496 32.758 0 45.255s-32.759 12.496-45.255 0z" />
<glyph unicode="&#xe610;" glyph-name="comment" d="M485.977-0.001c-7.791 0-15.485 2.844-21.492 8.287-9.489 8.598-12.939 22.024-8.771 34.132 7.354 21.358 8.163 52.178 2.496 88.32-103.045 10.558-198.315 51.325-270.5 116.185-79.776 71.679-123.71 165.818-123.71 265.077 0 52.531 12.135 103.443 36.068 151.322 22.901 45.815 55.572 86.865 97.105 122.008 84.343 71.366 196.15 110.67 314.827 110.67s230.483-39.303 314.826-110.67c41.533-35.143 74.204-76.192 97.105-122.008 23.934-47.879 36.069-98.791 36.069-151.322 0-45.804-9.302-90.622-27.646-133.208-17.596-40.847-43.039-78.594-75.623-112.195-60.257-62.137-142.47-106.65-233.204-126.604-4.375-12.874-9.887-25.372-16.473-37.337-24.244-44.038-61.5-78.528-107.74-99.741-4.271-1.96-8.821-2.916-13.337-2.916zM512 832c-211.738 0-384-143.551-384-320 0-168.194 157.618-308.457 358.831-319.322 14.373-0.775 26.459-11.053 29.535-25.113 5.341-24.411 8.435-47.458 9.281-68.742 9.831 10.36 18.341 21.984 25.34 34.699 7.222 13.117 12.656 27.106 16.154 41.578 2.983 12.344 12.983 21.755 25.484 23.985 175.788 31.36 303.375 162.96 303.375 312.915 0 176.448-172.262 320-384 320z" />
<glyph unicode="&#xe611;" glyph-name="date" d="M924.78 622.392c-22.565 53.351-54.863 101.259-95.997 142.392s-89.040 73.431-142.392 95.997c-55.252 23.369-113.925 35.219-174.391 35.219s-119.14-11.85-174.392-35.219c-53.352-22.566-101.259-54.864-142.392-95.997s-73.432-89.041-95.997-142.392c-23.369-55.253-35.219-113.927-35.219-174.392 0-60.466 11.85-119.14 35.219-174.392 22.565-53.352 54.864-101.26 95.997-142.393s89.041-73.431 142.392-95.997c55.252-23.368 113.926-35.218 174.392-35.218s119.139 11.85 174.392 35.219c53.352 22.566 101.259 54.864 142.392 95.997s73.432 89.041 95.997 142.393c23.369 55.251 35.219 113.925 35.219 174.391s-11.85 119.139-35.22 174.392zM512 64c-211.738 0-384 172.262-384 384s172.262 384 384 384 384-172.262 384-384c0-211.738-172.262-384-384-384zM544 461.255v242.745c0 17.673-14.326 32-32 32s-32-14.327-32-32v-256c0-0.029 0.002-0.058 0.002-0.087 0.001-0.498 0.013-0.995 0.038-1.492 0.013-0.261 0.037-0.519 0.056-0.778 0.019-0.261 0.034-0.521 0.060-0.781 0.031-0.32 0.074-0.639 0.115-0.957 0.025-0.194 0.045-0.389 0.074-0.583 0.050-0.343 0.111-0.683 0.172-1.021 0.031-0.171 0.058-0.342 0.091-0.512 0.068-0.345 0.146-0.685 0.224-1.024 0.039-0.167 0.074-0.334 0.115-0.5 0.082-0.33 0.173-0.656 0.265-0.982 0.050-0.179 0.099-0.357 0.152-0.535 0.092-0.304 0.191-0.604 0.292-0.905 0.067-0.2 0.132-0.4 0.203-0.6 0.097-0.271 0.2-0.537 0.304-0.805 0.088-0.228 0.175-0.455 0.268-0.681 0.097-0.232 0.199-0.463 0.301-0.693 0.112-0.254 0.225-0.509 0.344-0.761 0.094-0.199 0.194-0.395 0.292-0.591 0.138-0.276 0.275-0.551 0.422-0.823 0.092-0.172 0.188-0.34 0.284-0.509 0.161-0.288 0.323-0.576 0.494-0.86 0.093-0.154 0.191-0.306 0.287-0.459 0.18-0.288 0.361-0.575 0.551-0.859 0.103-0.153 0.211-0.303 0.317-0.454 0.19-0.273 0.38-0.547 0.579-0.815 0.128-0.172 0.263-0.339 0.394-0.508 0.186-0.239 0.369-0.48 0.562-0.716 0.185-0.226 0.378-0.443 0.569-0.663 0.15-0.173 0.295-0.349 0.45-0.52 0.358-0.396 0.726-0.783 1.104-1.16l159.99-159.991c6.251-6.252 14.439-9.375 22.629-9.375 8.188 0 16.38 3.125 22.627 9.372 12.497 12.497 12.497 32.759 0.001 45.255l-150.628 150.628z" />
<glyph unicode="&#xe612;" glyph-name="video" d="M287.998 0c-5.112 0-10.238 1.223-14.927 3.696-10.5 5.538-17.071 16.433-17.071 28.304v832c0 11.871 6.571 22.766 17.071 28.304 10.498 5.539 23.202 4.809 32.999-1.895l608-416c8.717-5.964 13.93-15.847 13.93-26.409s-5.213-20.445-13.931-26.41l-608-416c-5.422-3.71-11.735-5.59-18.071-5.59zM320 803.332v-710.664l519.331 355.332-519.331 355.332z" />
<glyph unicode="&#xe613;" glyph-name="pinterest" d="M511.999 97.976c-34.637 0-67.453 5.014-99.354 14.584 13.214 20.964 28.257 47.853 35.548 74.745 0 0 4.104 15.493 24.61 96.167 11.852-23.245 47.399-43.752 85.228-43.752 112.573 0 189.142 102.542 189.142 240.182 0 103.46-87.963 200.536-221.956 200.536-165.898 0-249.757-119.41-249.757-218.762 0-60.162 22.788-113.942 71.556-133.999 7.746-3.19 15.039 0 17.317 9.119 1.823 5.924 5.471 21.417 7.292 27.797 2.278 9.118 1.369 11.852-5.015 19.599-14.127 16.865-23.242 38.287-23.242 68.821 0 88.416 66.087 167.721 172.279 167.721 93.887 0 145.843-57.425 145.843-134.451 0-100.719-44.664-185.949-111.206-185.949-36.46 0-63.806 30.083-55.146 67.456 10.482 44.205 30.992 92.063 30.992 123.964 0 28.711-15.496 52.866-47.4 52.866-37.373 0-67.453-38.74-67.453-90.696 0 0 0-33.269 11.395-55.6-38.283-162.251-45.12-190.512-45.12-190.512-6.381-26.429-6.838-56.055-5.926-80.669-123.51 54.24-209.649 177.294-209.649 320.856 0 193.245 156.78 350.025 350.023 350.025 193.245 0 350.025-156.78 350.025-350.025s-156.781-350.023-350.026-350.023z" />
<glyph unicode="&#xe614;" glyph-name="facebook" d="M654.953 553.727l-11.168-105.728h-84.508v-306.753h-126.943v306.753h-63.287v105.728h63.287v63.656c0 85.996 35.738 137.371 137.367 137.371h84.508v-105.726h-52.863c-39.462 0-42.068-14.893-42.068-42.439v-52.862h95.675z" />
<glyph unicode="&#xe615;" glyph-name="google-plus" d="M663.546 746.383l-48.416-28.335h-48.422c35.508-22.222 53.441-65.619 53.441-105.798 0-95.027-80.354-102.213-80.354-149.557 0-46.246 107.62-64.546 107.62-164.957 0-41.252-19.736-74.607-50.219-101.141-41.237-35.504-97.568-46.979-150.662-46.979-67.054 0-163.884 28.703-163.884 111.887 0 16.863 5.751 33.357 13.28 48.416 31.919 64.57 131.598 81.066 195.803 82.842-11.843 15.424-22.953 33.359-22.953 53.436 0 11.841 4.313 19.739 7.895 30.846-8.6-1.069-16.862-1.776-25.096-1.776-69.589 0-129.846 51.265-129.846 123.362 0 68.128 52.728 126.24 118.004 140.594 21.881 4.65 44.467 7.16 67.054 7.16h156.755zM513.248 370.541c-6.092 0.707-11.842 0.707-17.934 0.707-58.819 0-146.315-18.639-146.315-93.246 0-68.857 77.458-95.393 134.839-95.393 53.445 0 113.019 21.516 113.019 84.281-0.001 50.219-47.018 78.19-83.609 103.651zM458.010 720.557c-46.977 0-69.93-41.595-69.93-83.916 0-54.508 35.867-139.861 99.705-139.861 49.158 0 66.003 35.5 66.003 79.262 0 54.508-29.424 144.515-95.778 144.515zM879.45 608.667h-91.809v-91.81h-45.906v91.81h-91.811v45.906h91.811v91.81h45.906v-91.81h91.809v-45.906z" />
<glyph unicode="&#xe616;" glyph-name="linkedin" d="M272.869 656.498h-0.807c-45.455 0-74.525 31.099-74.525 70.021 0 39.694 30.293 70.017 76.167 70.017 46.262 0 74.914-30.322 75.333-70.017 0.418-38.922-29.071-70.021-76.168-70.021zM340.441 195.458h-135.116v405.765h135.116v-405.765zM826.463 195.458h-134.697v216.985c0 54.468-19.67 91.716-68.409 91.716-37.248 0-59.364-24.952-69.184-49.125-3.283-9.016-4.507-20.864-4.507-33.16v-226.416h-134.697c1.641 367.682 0 405.765 0 405.765h134.697v-58.979h-0.807c17.609 27.85 49.546 68.379 122.432 68.379 88.853 0 155.172-58.141 155.172-182.598v-232.567z" />
<glyph unicode="&#xe617;" glyph-name="reddit" d="M831.161 493.729c0 39.679-32.286 71.96-71.97 71.96-18.287 0-35.56-6.846-48.76-19.066-49.201 32.031-114.902 51.242-183.784 53.83l38.659 122.211 106.137-24.988c-0.014-0.522-0.039-1.042-0.039-1.568 0-31.701 25.803-57.492 57.519-57.492 31.687 0 57.466 25.791 57.466 57.492 0 31.697-25.779 57.483-57.466 57.483-24.35 0-45.199-15.206-53.577-36.61l-114.414 26.938c-5.013 1.174-10.086-1.703-11.64-6.612l-43.204-136.576c-73.206-0.752-141.395-19.481-193.642-53.113-13.077 11.586-29.97 18.073-47.682 18.073-39.66 0-71.926-32.281-71.926-71.96 0-25.228 13.245-48.41 34.407-61.361-1.222-7.218-1.84-14.505-1.84-21.756 0-51.738 30.327-100.021 85.396-135.957 53.552-34.942 124.531-54.188 199.864-54.188 75.345 0 146.333 19.246 199.888 54.188 55.071 35.936 85.399 84.218 85.399 135.957 0 6.783-0.538 13.595-1.604 20.345 22.64 12.59 36.813 36.304 36.813 62.77zM728.923 733.905c20.832 0 37.78-16.956 37.78-37.798 0-20.847-16.948-37.807-37.78-37.807-20.861 0-37.833 16.96-37.833 37.807 0 20.842 16.972 37.798 37.833 37.798zM777.148 448.213l-9.221-3.634 2.233-9.656c1.854-8.010 2.793-16.189 2.793-24.311 0-92.164-117.661-167.145-262.287-167.145-144.611 0-262.26 74.98-262.26 167.145 0 8.412 1.012 16.895 3.010 25.209l2.234 9.305-8.743 3.889c-17.658 7.85-29.068 25.4-29.068 44.714 0 26.996 21.947 48.959 48.925 48.959 14.421 0 28.047-6.326 37.383-17.357l6.76-7.987 8.589 5.979c49.7 34.599 120.107 54.441 193.171 54.441 73.965 0 144.961-20.249 194.784-55.556l8.832-6.259 6.781 8.438c9.349 11.631 23.245 18.302 38.127 18.302 27.002 0 48.969-21.963 48.969-48.959 0-20.229-12.173-38.094-31.012-45.517zM447.629 445.487c0 17.687-14.339 32.002-31.99 32.002-17.695 0-32.017-14.315-32.017-32.002 0-17.669 14.321-31.992 32.017-31.992 17.651 0 31.99 14.323 31.99 31.992zM608.527 477.489c-17.651 0-31.991-14.315-31.991-32.002 0-17.669 14.34-31.992 31.991-31.992 17.668 0 31.982 14.323 31.982 31.992 0.001 17.687-14.314 32.002-31.982 32.002zM599.604 335.339c-17.214-17.2-45.756-25.563-87.259-25.563-0.119 0-0.23-0.031-0.35-0.036-0.118 0.005-0.229 0.036-0.349 0.036-41.516 0-70.058 8.361-87.257 25.56-3.844 3.844-10.075 3.845-13.919 0.001-3.845-3.844-3.845-10.075-0.001-13.919 21.079-21.080 54.174-31.327 101.177-31.327 0.119 0 0.23 0.030 0.349 0.035 0.119-0.005 0.23-0.035 0.35-0.035 46.987 0 80.080 10.246 101.174 31.324 3.845 3.842 3.847 10.074 0.004 13.92-3.842 3.844-10.074 3.847-13.919 0.004z" />
<glyph unicode="&#xe618;" glyph-name="twitter" d="M781.996 586.449c0.431-6.040 0.431-12.078 0.431-18.116 0-184.167-140.172-396.368-396.367-396.368-78.929 0-152.251 22.859-213.927 62.539 11.214-1.294 21.997-1.725 33.642-1.725 65.127 0 125.078 21.996 172.953 59.519-61.245 1.294-112.57 41.405-130.254 96.612 8.626-1.294 17.253-2.156 26.31-2.156 12.508 0 25.016 1.725 36.661 4.744-63.834 12.939-111.708 69.009-111.708 136.724 0 0.432 0 1.294 0 1.726 18.546-10.352 40.111-16.821 62.97-17.684-37.522 25.016-62.107 67.714-62.107 116.020 0 25.879 6.901 49.601 18.978 70.302 68.577-84.535 171.659-139.741 287.249-145.781-2.157 10.352-3.451 21.135-3.451 31.917 0 76.772 62.107 139.311 139.311 139.311 40.113 0 76.341-16.821 101.79-43.993 31.485 6.038 61.677 17.684 88.416 33.641-10.352-32.347-32.349-59.519-61.246-76.772 28.036 3.020 55.207 10.783 80.223 21.565-18.979-27.601-42.701-52.185-69.874-72.025z" />
<glyph unicode="&#xe619;" glyph-name="safebutton" d="M607.832 736c0-53.019-42.981-96-96-96s-96 42.981-96 96c0 53.019 42.981 96 96 96s96-42.981 96-96zM607.832 160c0-53.019-42.981-96-96-96s-96 42.981-96 96c0 53.019 42.981 96 96 96s96-42.981 96-96zM607.832 448c0-53.019-42.981-96-96-96s-96 42.981-96 96c0 53.019 42.981 96 96 96s96-42.981 96-96z" />
<glyph unicode="&#xe61a;" glyph-name="shop" d="M927.753 35.969l-64 512c-2.002 16.014-15.614 28.031-31.753 28.031h-126.015c0.419 42.964-0.318 85.53-5.004 124.345-8.057 66.737-27.31 114.843-58.858 147.065-31.567 32.242-75.348 48.59-130.123 48.59-0.003 0 0.003 0 0 0-54.771 0-98.557-16.35-130.123-48.589-31.549-32.223-50.802-80.328-58.858-147.065-4.686-38.815-5.422-81.381-5.004-124.345h-126.015c-16.138 0-29.751-12.017-31.753-28.031l-64-512c-1.138-9.107 1.689-18.266 7.763-25.146 6.075-6.883 14.811-10.824 23.99-10.824h768c9.179 0 17.915 3.941 23.989 10.822s8.903 16.039 7.764 25.147zM427.607 802.636c19.346 19.759 46.951 29.364 84.393 29.364s65.047-9.605 84.393-29.364c41.709-42.599 46.532-132.073 45.592-226.636h-259.97c-0.94 94.563 3.883 184.037 45.592 226.636zM164.249 64l56 448h98.904c0.443-21.316 0.847-43.073 0.847-64 0-17.673 14.327-32 32-32s32 14.327 32 32c0 21.112-0.394 42.776-0.833 64h257.666c-0.439-21.224-0.833-42.888-0.833-64 0-17.673 14.327-32 32-32s32 14.327 32 32c0 20.927 0.403 42.684 0.847 64h98.904l56-448h-695.502z" />
<glyph unicode="&#xe61b;" glyph-name="qq" d="M786.443 331.249c-30.75 21.623-69.092 20.125-90.902-10.9-21.85-30.987-174.326-222.269-424.224-142.843 9.402-8.209 19.334-16.002 29.744-23.362 163.922-115.406 390.357-76.097 505.767 87.83 21.85 31.010 10.328 67.624-20.385 89.275v0zM304.226 355.646c-15.92 34.377-105.315 262.108 88.389 438.799-11.787-4.056-23.497-8.713-35.062-14.108-181.927-84.237-261.111-299.987-176.874-481.919 15.954-34.369 53.409-42.773 87.512-26.97s51.945 49.786 36.035 84.198v0zM542.635 812.518c-37.73 3.382-63.702-24.859-67.084-62.32-3.357-37.456 17.144-69.902 54.869-73.284 37.725-3.434 279.646-39.854 335.791-295.985 2.428 12.25 4.2 24.73 5.355 37.456 17.997 199.687-129.283 376.128-328.931 394.133v0zM387.379 429.483c-10.409-24.474-12.095-47.864-3.743-52.186 5.742-3.039 14.759 3.819 23.203 16.388 3.357-13.686 11.642-26.094 23.468-36.040-12.408-4.586-20.496-12.052-20.496-20.539 0-13.906 21.917-25.192 48.968-25.192 24.397 0 44.589 9.162 48.327 21.189 0.997 0.039 4.855 0.039 5.819 0 3.743-12.027 23.969-21.189 48.36-21.189 27.053 0 48.979 11.286 48.979 25.192 0 8.487-8.092 15.953-20.5 20.539 11.791 9.946 20.114 22.354 23.428 36.040 8.439-12.568 17.457-19.427 23.199-16.388 8.361 4.321 6.705 27.712-3.7 52.186-8.169 19.229-19.267 33.4-27.745 36.531 0.154 1.194 0.193 2.466 0.193 3.699 0 7.437-2.081 14.292-5.588 19.874 0.039 0.424 0.039 0.891 0.039 1.315 0 3.435-0.81 6.628-2.197 9.398-2.119 50.027-34.682 89.713-87.358 89.713-52.715 0-85.282-39.686-87.401-89.713-1.421-2.77-2.23-5.963-2.23-9.398 0-0.424 0.039-0.891 0.039-1.315-3.468-5.583-5.549-12.437-5.549-19.874 0-1.233 0.039-2.466 0.154-3.699-8.406-3.131-19.543-17.302-27.669-36.531v0z" />
<glyph unicode="&#xe61c;" glyph-name="renren" d="M247.52 235.646c-53.473 63.571-80.209 136.64-80.209 219.374 0 55.192 12.31 106.754 37.026 154.842 24.621 47.883 58.475 87.687 101.657 119.353 43.086 31.642 91.077 51.826 143.961 60.662v-214.83c0-74.464-18.634-142.339-56.058-203.614-37.303-61.263-86.172-106.562-146.377-135.787v0zM564.896 250.746c-28.841 36.63-48.364 76.17-58.655 118.667-10.122-42.497-29.55-82.037-58.306-118.667-28.756-36.643-63.571-67.815-104.337-93.494 50.491-27.794 104.733-41.632 162.643-41.632 58.174 0 112.513 13.838 163.004 41.632-40.777 25.679-75.497 56.852-104.349 93.494v0zM810.814 609.862c-24.717 47.883-58.57 87.687-101.656 119.353-43.087 31.642-91.174 51.826-143.974 60.662v-214.83c0-74.464 18.562-142.339 55.974-203.614 37.412-61.263 86.173-106.465 146.474-135.786 53.474 63.571 80.114 136.64 80.114 219.374 0 55.096-12.31 106.753-36.932 154.841v0z" />
<glyph unicode="&#xe61d;" glyph-name="weibo" d="M686.206 445.467c-10.205 3.1-17.202 5.24-11.867 18.871 11.562 29.619 12.767 55.16 0.232 73.385-23.516 34.186-87.829 32.349-161.541 0.915 0 0.036-23.152-10.307-17.245 8.39 11.351 37.117 9.625 68.182-8.005 86.131-39.984 40.739-146.35-1.546-237.586-94.361-68.301-69.532-107.944-143.244-107.944-206.962 0-121.883 153.55-203.419 303.782-203.419 196.931 0 327.951 123.894 327.951 216.36 0 55.879-46.233 87.589-87.777 100.69zM446.442 183.069c-119.884-11.882-223.346 42.575-231.141 121.731-7.781 79.125 83.107 152.939 202.973 164.857 119.884 11.932 223.367-42.562 231.134-121.688 7.766-79.155-83.060-152.983-202.966-164.9zM881.75 544.72c-0.059 123.088-99.855 222.863-222.965 222.863-14.371 0-26.013-11.642-26.013-26.013s11.642-26.013 26.013-26.013c94.412 0 170.939-76.535 170.939-170.939 0-14.371 11.656-26.013 26.013-26.013 14.371 0 26.013 11.642 26.013 26.013 0 0 0 0.058 0 0.102zM778.389 548.537c-11.881 58.035-57.635 103.782-115.685 115.67-14.051 2.896-27.805-6.169-30.687-20.235-2.903-14.073 6.155-27.813 20.214-30.723 37.733-7.722 67.484-37.451 75.199-75.185 2.911-14.073 16.649-23.124 30.724-20.243 14.059 2.911 23.117 16.65 20.235 30.716zM384.953 392.157c-48.291-9.712-80.876-50.211-72.791-90.449 8.082-40.237 53.789-64.987 102.083-55.276 48.276 9.711 80.872 50.189 72.786 90.441-8.069 40.231-53.798 64.988-102.078 55.284z" />
<glyph unicode="&#xe61e;" glyph-name="wechat" d="M566.268 382.12c0 11.892 11.979 23.856 23.855 23.856 18.039 0 29.85-11.965 29.85-23.856 0-12.065-11.811-23.856-29.85-23.856-11.877 0-23.855 11.791-23.855 23.856zM697.621 382.12c0 11.892 11.892 23.856 23.688 23.856 17.87 0 29.849-11.965 29.849-23.856 0-12.065-11.979-23.856-29.849-23.856-11.796 0-23.688 11.791-23.688 23.856zM453.039 328.408c0-95.52 89.372-173.080 202.849-173.080 23.749 0 47.706 5.999 71.563 11.979l65.421-35.835-17.938 59.604c47.874 35.915 83.534 83.54 83.534 137.333 0 95.357-95.411 173.081-202.58 173.081-113.477-0.001-202.849-77.724-202.849-173.082zM309.727 549.215c0 17.944 18.042 29.755 35.916 29.755 17.877 0 29.771-11.811 29.771-29.755 0-17.891-11.895-29.849-29.771-29.849-17.874 0-35.916 11.958-35.916 29.849zM476.748 549.215c0 17.944 17.938 29.755 35.808 29.755 17.958 0 29.855-11.811 29.855-29.755 0-17.891-11.897-29.849-29.855-29.849-17.871 0-35.808 11.958-35.808 29.849zM184.628 477.552c0-65.522 35.727-119.288 95.435-161.021l-23.853-71.736 83.376 41.8c29.832-5.892 53.769-11.979 83.541-11.979 7.486 0 14.901 0.384 22.262 0.955-4.658 15.934-7.361 32.634-7.361 49.973 0 104.195 89.479 188.752 202.774 188.752 7.729 0 15.376-0.559 22.962-1.406-20.641 96.091-123.37 167.492-240.637 167.492-131.112-0.002-238.499-89.347-238.499-202.83zM423.126 680.38c-131.112 0-238.499-89.345-238.499-202.829 0-65.522 35.727-119.288 95.435-161.021l-23.853-71.736 83.376 41.8c29.832-5.892 53.769-11.979 83.541-11.979 7.486 0 14.901 0.384 22.262 0.955-4.658 15.934-7.361 32.634-7.361 49.973 0 104.195 89.479 188.752 202.774 188.752 7.729 0 15.376-0.559 22.962-1.406-20.64 96.090-123.369 167.491-240.637 167.491zM345.643 519.366c-17.874 0-35.916 11.958-35.916 29.849 0 17.944 18.042 29.755 35.916 29.755 17.877 0 29.771-11.811 29.771-29.755 0-17.891-11.894-29.849-29.771-29.849zM512.556 519.366c-17.871 0-35.808 11.958-35.808 29.849 0 17.944 17.938 29.755 35.808 29.755 17.958 0 29.862-11.811 29.862-29.755 0-17.891-11.904-29.849-29.862-29.849zM858.468 328.408c0 95.357-95.411 173.081-202.58 173.081-113.477 0-202.849-77.723-202.849-173.081 0-95.52 89.372-173.080 202.849-173.080 23.749 0 47.706 5.999 71.563 11.979l65.421-35.835-17.938 59.604c47.874 35.914 83.534 83.539 83.534 137.332zM590.123 358.264c-11.877 0-23.855 11.791-23.855 23.856 0 11.892 11.979 23.856 23.855 23.856 18.039 0 29.85-11.965 29.85-23.856 0-12.065-11.811-23.856-29.85-23.856zM721.31 358.264c-11.797 0-23.688 11.791-23.688 23.856 0 11.892 11.892 23.856 23.688 23.856 17.87 0 29.849-11.965 29.849-23.856-0.001-12.065-11.979-23.856-29.849-23.856z" />
<glyph unicode="&#xe61f;" glyph-name="vimeo" d="M850.859 603.283c-38.272-215.511-251.941-397.931-316.242-439.635-64.308-41.692-122.966 16.638-144.194 60.838-24.394 50.309-97.352 323.144-116.447 345.791-19.095 22.559-76.458-22.647-76.458-22.647l-27.785 36.436c0 0 116.404 139.053 204.979 156.513 93.967 18.384 93.847-144.314 116.442-234.563 21.857-87.411 36.561-137.379 55.619-137.379 19.139 0 55.612 48.719 95.558 123.424 39.979 74.705-1.717 140.806-79.93 93.841 31.246 187.686 326.687 232.81 288.458 17.381v0z" />
<glyph unicode="&#xe620;" glyph-name="skype" d="M666.283 139.434c-35.355 0-67.903 12.053-94.013 32.14-19.289-4.015-39.78-6.425-60.271-6.425-156.291 0-282.853 126.561-282.853 282.852 0 20.491 2.41 40.981 6.433 60.271-20.095 26.109-32.146 58.659-32.146 94.013 0 85.179 69.105 154.283 154.283 154.283 35.355 0 67.904-12.051 94.013-32.138 19.29 4.014 39.78 6.424 60.27 6.424 156.29 0 282.853-126.562 282.853-282.853 0-20.49-2.41-40.98-6.432-60.27 20.095-26.109 32.146-58.659 32.146-94.014 0-85.178-69.105-154.283-154.283-154.283zM549.765 487.78l-41.779 9.641c-30.542 7.23-53.442 12.454-53.442 35.758 0 21.296 22.505 30.937 57.859 30.937 63.076 0 64.285-46.204 103.257-46.204 26.118 0 41.78 20.49 41.78 43.794 0 46.205-76.737 76.337-152.671 76.337-69.508 0-150.269-30.132-150.269-111.691 0-67.501 45.002-91.609 103.661-105.668l58.658-14.468c35.757-8.836 57.86-12.857 57.86-38.571 0-20.492-22.901-36.162-58.264-36.162-74.327 0-78.342 61.876-121.338 61.876-28.124 0-40.578-20.088-40.578-42.183 0-49.42 75.538-89.595 165.938-89.595 75.53 0 154.284 37.765 154.284 119.323 0.003 69.909-67.902 94.019-124.956 106.876z" />
<glyph unicode="&#xe621;" glyph-name="instagram" d="M804.566 230.479c0-41.141-33.904-75.045-75.045-75.045h-435.043c-41.142 0-75.044 33.904-75.044 75.045v435.043c0 41.142 33.903 75.044 75.044 75.044h435.043c41.141 0 75.045-33.903 75.045-75.044v-435.043zM738.281 492.955h-51.429c4.951-15.622 7.62-32.764 7.62-49.908 0-97.521-81.52-176.38-182.090-176.38-100.19 0-181.714 78.858-181.714 176.38 0 17.144 2.667 34.286 7.619 49.908h-53.713v-246.855c0-12.953 10.287-23.24 23.241-23.24h407.232c12.947 0 23.234 10.287 23.234 23.24v246.855zM512.382 563.047c-64.765 0-117.333-51.047-117.333-113.901 0-62.86 52.567-113.908 117.333-113.908 65.138 0 117.713 51.048 117.713 113.908 0.001 62.854-52.574 113.901-117.713 113.901zM738.281 649.143c0 14.476-11.809 26.283-26.285 26.283h-66.285c-14.476 0-26.283-11.808-26.283-26.283v-62.862c0-14.474 11.808-26.283 26.283-26.283h66.285c14.477 0 26.285 11.809 26.285 26.283v62.862z" />
<glyph unicode="&#xe622;" glyph-name="github" d="M606.739 156.424c-15.206-2.729-20.274 6.626-20.274 14.424 0 9.746 0 42.105 0 82.263 0 28.073-9.355 46.008-20.274 55.363 66.673 7.407 136.844 32.75 136.844 147.763 0 32.75-11.694 59.649-30.795 80.314 3.12 7.791 13.25 38.203-3.121 79.533-24.952 7.798-82.263-30.802-82.263-30.802-23.778 6.625-49.513 10.137-74.855 10.137s-51.076-3.512-74.855-10.137c0 0-57.311 38.601-82.653 30.802-15.98-41.331-5.851-71.742-2.729-79.533-19.102-20.665-30.796-47.564-30.796-80.314 0-114.621 69.787-140.355 136.453-147.763-8.58-7.798-16.379-20.665-19.102-40.157-17.16-7.799-60.822-21.049-86.947 24.951-16.371 28.464-46.001 30.803-46.001 30.803-29.238 0.391-1.947-18.326-1.947-18.326 19.492-8.965 33.134-43.662 33.134-43.662 17.545-53.416 100.98-35.48 100.98-35.48 0-24.951 0.391-48.737 0.391-55.754 0-7.798-5.46-17.153-20.665-14.424-118.91 39.765-204.685 152.049-204.685 284.215 0 165.307 134.114 299.421 299.421 299.421s299.421-134.114 299.421-299.421c0-132.166-85.774-244.45-204.682-284.216z" />
<glyph unicode="&#xe623;" glyph-name="tumblr" d="M522.209 768v-147.753h138.614v-91.775h-138.614v-150.039c0-33.892 1.523-55.598 5.331-65.499 3.428-9.52 10.282-17.137 19.803-22.849 12.947-7.997 27.799-11.805 44.555-11.805 29.702 0 59.025 9.52 88.348 28.941v-92.155c-25.133-11.806-47.602-20.183-67.784-24.753-20.183-4.95-42.27-7.235-65.88-7.235-26.657 0-50.267 3.428-70.831 10.282-20.563 6.473-38.081 16.375-52.552 28.561-14.47 12.566-24.752 25.895-30.083 39.984-5.712 14.091-8.377 34.654-8.377 61.311v205.255h-64.739v82.636c22.849 7.616 42.65 18.279 59.025 31.988 16.375 14.089 29.322 30.846 39.223 50.267 9.901 19.802 16.756 44.555 20.563 74.638h83.398z" />
<glyph unicode="&#xe624;" glyph-name="dribbble" d="M512 137.816c-171.247 0-310.184 138.937-310.184 310.184s138.937 310.184 310.184 310.184c171.248 0 310.184-138.937 310.184-310.184s-138.936-310.184-310.184-310.184zM519.271 494.043c-136.514-40.793-267.372-37.562-271.814-37.562-0.404-2.827-0.404-5.654-0.404-8.481 0-67.853 25.849-130.051 67.853-176.901 72.294 128.838 215.27 174.881 215.27 174.881 3.635 1.212 7.27 2.020 10.501 3.231-6.463 14.944-13.733 29.888-21.406 44.832zM398.912 687.504c-73.91-34.734-128.839-102.991-146.206-184.979 6.866 0 117.53-1.211 244.755 32.311-46.043 81.584-94.913 147.821-98.549 152.668zM558.852 405.188c-0.404 0-1.212-0.404-1.616-0.404 0 0-157.111-54.928-208.001-165.593-2.423 2.020-6.058 4.442-6.058 4.442 46.043-37.56 104.605-60.581 168.823-60.581 36.754 0 71.488 7.674 103.395 21.002-4.039 23.425-19.386 104.202-56.543 201.134zM447.782 704.871c0 0 0.404 0.404 0.808 0.404-0.403-0.001-0.403-0.001-0.808-0.404zM512 712.948c-21.405 0-42.407-2.827-62.602-7.674 4.038-5.25 54.12-71.083 99.355-154.284 99.76 37.157 137.321 94.509 138.129 95.721-46.446 41.197-107.837 66.237-174.882 66.237zM716.771 616.42c-0.809-0.808-43.216-62.198-147.822-105.010 6.059-12.521 12.116-25.445 17.771-38.369 2.020-4.443 3.636-9.289 5.655-13.732 91.277 11.713 181.344-8.077 184.575-8.481-0.808 62.601-23.022 120.357-60.179 165.592zM608.529 417.709c34.733-95.721 48.87-173.671 51.697-189.422 59.371 39.984 101.375 103.798 113.491 177.709-5.654 1.615-79.565 25.041-165.188 11.713z" />
<glyph unicode="&#xe625;" glyph-name="flickr" d="M827.761 645.351v-394.701c0-65.363-53.046-118.41-118.409-118.41h-394.703c-65.364 0-118.41 53.047-118.41 118.41v394.701c0 65.364 53.046 118.41 118.41 118.41h394.702c65.364 0 118.41-53.046 118.41-118.41zM396.047 535.152c-48.101 0-87.152-39.051-87.152-87.152s39.051-87.151 87.152-87.151 87.181 39.051 87.181 87.151c0.001 48.102-39.080 87.152-87.181 87.152zM627.954 535.152c-48.103 0-87.183-39.051-87.183-87.152s39.080-87.151 87.183-87.151c48.101 0 87.15 39.051 87.15 87.151 0 48.102-39.049 87.152-87.15 87.152z" />
<glyph unicode="&#xe626;" glyph-name="youtube" d="M834.516 285.99c-7.836-36.568-36.949-63.451-72.049-67.557-82.855-9.336-166.852-9.336-250.466-9.336-83.616 0-167.613 0-250.466 9.336-35.1 4.105-64.216 30.988-72.432 67.557-11.563 51.891-11.563 108.625-11.563 162.007 0 53.388 0 110.122 11.943 162.007 8.219 36.57 36.952 63.456 72.052 67.563 82.853 9.336 166.851 9.336 250.466 9.336s167.611 0 250.466-9.336c35.1-4.107 64.213-30.993 72.432-67.563 11.563-51.885 11.563-108.619 11.563-162.007-0.001-53.382-0.001-110.116-11.946-162.007zM644.131 468.163l-191.122 119.452c-7.454 4.84-16.788 4.84-24.244 0.732-7.481-4.107-12.326-12.298-12.326-20.897v-238.901c0-8.598 4.845-16.789 12.326-20.896 3.729-1.877 7.457-2.994 11.566-2.994 4.489 0 8.951 1.117 12.678 3.727l191.122 119.453c7.102 4.107 11.211 11.945 11.211 20.16 0 8.217-4.11 16.056-11.211 20.164z" />
<glyph unicode="&#xe627;" glyph-name="rss" d="M801.242 159.564c-5.071-5.473-11.803-8.423-19.395-8.423h-60.306c-14.324 0-26.127 10.973-26.988 25.298-13.893 245.006-209.134 440.212-454.139 454.57-14.324 0.829-25.296 12.632-25.296 26.557v60.306c0 7.589 2.951 14.32 8.421 19.393 5.072 5.071 11.803 7.594 18.564 7.594 0.432 0 0.83 0 1.261 0 147.598-7.594 286.315-69.588 390.883-174.589 104.998-104.563 166.994-243.281 174.587-390.88 0.431-7.164-2.12-14.325-7.592-19.826zM585.776 159.993c-5.071-5.901-12.234-8.852-19.825-8.852h-56.926c-13.924 0-25.297 10.544-26.557 24.468-12.233 128.603-114.28 230.648-242.884 242.885-13.924 1.259-24.466 12.633-24.466 26.557v56.923c0 7.594 2.951 14.753 8.852 19.825 4.641 4.643 11.372 7.16 18.133 7.16 0.83 0 1.261 0 2.121 0 89.814-7.16 174.556-46.378 238.243-110.465 64.087-63.69 103.308-148.433 110.469-238.246 0.432-7.589-2.119-14.782-7.16-20.255zM296.079 151.142c-44.691 0-80.96 36.271-80.96 80.961s36.269 80.962 80.96 80.962 80.961-36.271 80.961-80.962-36.269-80.961-80.961-80.961z" />
<glyph unicode="&#xe628;" glyph-name="nav-down" d="M63.999 662.626c0 8.189 3.124 16.379 9.372 22.628 12.497 12.496 32.759 12.496 45.256 0l393.373-393.371 393.373 393.372c12.497 12.496 32.758 12.496 45.255 0 12.497-12.497 12.497-32.758 0-45.256l-438.628-438.626-438.629 438.626c-6.248 6.249-9.372 14.438-9.372 22.627z" />
<glyph unicode="&#xe629;" glyph-name="quote" d="M248.597 671.311c77.010 65.034 135.196 90.703 172.843 95.844 39.362 5.13 58.186-13.693 58.186-39.364 0-32.516-49.622-56.48-73.586-71.88-77.009-46.199-124.926-88.986-124.926-121.501 0-23.964 37.646-23.964 54.764-25.67 82.139-6.848 135.196-95.832 135.196-172.843 0-100.973-83.856-174.557-181.406-174.557-121.502 0-196.806 111.229-196.806 222.475-0.001 109.525 75.303 220.756 155.735 287.496zM696.972 671.311c77.010 65.034 135.197 90.703 172.843 95.844 39.363 5.13 58.186-13.693 58.186-39.364 0-32.516-49.633-56.48-73.585-71.88-77.010-46.199-124.925-88.986-124.925-121.501 0-23.964 37.646-23.964 54.761-25.67 82.14-6.848 135.198-95.832 135.198-172.843 0-100.973-83.856-174.557-181.408-174.557-121.502 0-196.807 111.229-196.807 222.475-0.001 109.525 75.304 220.756 155.737 287.496z" />
<glyph unicode="&#xe62a;" glyph-name="envelope" d="M928 766.588h-832c-17.673 0-32-14.327-32-32v-574.588c0-17.674 14.327-32 32-32h832c17.673 0 32 14.326 32 32v574.588c0 17.672-14.327 32-32 32zM821.078 702.588l-309.078-232.088-309.079 232.088h618.157zM128 192v485.017l365.784-271.745c5.479-3.793 11.848-5.688 18.216-5.688s12.734 1.896 18.215 5.688l365.785 271.745v-485.017h-768z" />
<glyph unicode="&#xe62b;" glyph-name="th-large" d="M416 512h-320c-17.673 0-32 14.327-32 32v320c0 17.673 14.327 32 32 32h320c17.673 0 32-14.327 32-32v-320c0-17.673-14.327-32-32-32zM128 576h256v256h-256v-256zM416 0h-320c-17.673 0-32 14.327-32 32v320c0 17.673 14.327 32 32 32h320c17.673 0 32-14.327 32-32v-320c0-17.673-14.327-32-32-32zM128 64h256v256h-256v-256zM928 512h-320c-17.673 0-32 14.327-32 32v320c0 17.673 14.327 32 32 32h320c17.673 0 32-14.327 32-32v-320c0-17.673-14.327-32-32-32zM640 576h256v256h-256v-256zM928 0h-320c-17.673 0-32 14.327-32 32v320c0 17.673 14.327 32 32 32h320c17.673 0 32-14.327 32-32v-320c0-17.673-14.327-32-32-32zM640 64h256v256h-256v-256z" />
<glyph unicode="&#xe62c;" glyph-name="xing" d="M278.063 651.341c-5.839 0-10.752-2.049-13.221-6.059-2.556-4.142-2.158-9.476 0.551-14.873l65.547-113.469c0.112-0.221 0.112-0.352 0-0.551l-103.002-181.771c-2.69-5.354-2.556-10.729 0-14.872 2.466-3.986 6.828-6.609 12.667-6.609h96.945c14.498 0 21.482 9.783 26.44 18.728 0 0 100.734 178.158 104.656 185.076-0.396 0.639-66.649 116.224-66.649 116.224-4.826 8.592-12.119 18.177-26.99 18.177h-96.944zM685.335 784.089c-14.476 0-20.756-9.121-25.954-18.464 0 0-208.85-370.372-215.723-382.534 0.352-0.661 137.747-252.717 137.747-252.717 4.806-8.593 12.229-18.463 27.079-18.463h96.835c5.84 0 10.399 2.202 12.867 6.191 2.578 4.141 2.512 9.605-0.197 14.981l-136.67 249.698c-0.133 0.198-0.133 0.44 0 0.639l214.645 379.517c2.688 5.354 2.754 10.819 0.197 14.96-2.468 3.988-7.052 6.191-12.889 6.191h-97.937z" />
<glyph unicode="&#xe62d;" glyph-name="vsco" d="M666.431 586.601c-113.478-4.263-184.201-78.338-210.28-133.838-24.333-26.921-59.431-43.902-98.579-43.902-73.47 0-133.018 59.55-133.018 133.018 0 73.458 59.548 133.016 133.018 133.016 40.98 0 77.592-18.566 101.989-47.696l67.126 73.841c-42.399 45.033-102.385 73.299-169.116 73.299-128.392 0-232.471-104.070-232.471-232.459 0-128.393 104.080-232.48 232.471-232.48 27.637 0 54.101 4.924 78.689 13.77 15.167-113.703 112.298-201.506 230.169-201.506 128.39 0 232.469 104.090 232.469 232.479s-104.169 237.277-232.467 232.458zM666.431 221.125c-73.469 0-133.019 59.547-133.019 133.016 0 16.139 3.018 31.529 8.28 45.832 2.943 3.816 5.789 13.451 5.789 13.451 21.817 43.667 66.818 73.735 118.949 73.735 73.467 0 133.016-59.56 133.016-133.019 0-73.468-59.549-133.015-133.015-133.015z" />
<glyph unicode="&#xe62e;" glyph-name="vk" d="M502.955 209.535h50.392c0 0 15.217 1.677 22.999 10.049 7.15 7.696 6.923 22.135 6.923 22.135s-0.986 67.616 30.39 77.572c30.944 9.814 70.668-65.348 112.771-94.251 31.838-21.863 56.033-17.079 56.033-17.079l112.588 1.574c0 0 58.895 3.634 30.967 49.939-2.285 3.781-16.268 34.253-83.713 96.856-70.603 65.526-61.139 54.925 23.899 168.268 51.79 69.024 72.491 111.164 66.022 129.211-6.163 17.194-44.258 12.652-44.258 12.652l-126.765-0.784c0 0-9.405 1.279-16.369-2.889-6.814-4.076-11.186-13.6-11.186-13.6s-20.072-53.41-46.82-98.841c-56.447-95.847-79.021-100.921-88.248-94.96-21.467 13.873-16.102 55.721-16.102 85.457 0 92.892 14.089 131.622-27.438 141.647-13.777 3.324-23.928 5.524-59.168 5.884-45.235 0.459-83.51-0.141-105.188-10.759-14.421-7.063-25.548-22.797-18.769-23.702 8.381-1.116 27.351-5.121 37.409-18.807 12.994-17.68 12.541-57.364 12.541-57.364s7.466-109.348-17.433-122.927c-17.086-9.315-40.525 9.702-90.852 96.662-25.78 44.543-45.251 93.785-45.251 93.785s-3.749 9.199-10.447 14.124c-8.122 5.967-19.472 7.859-19.472 7.859l-120.465-0.787c0 0-18.080-0.506-24.722-8.369-5.913-7-0.474-21.461-0.474-21.461s94.304-220.641 201.095-331.831c97.93-101.954 209.111-95.263 209.111-95.263z" />
<glyph unicode="&#xe62f;" glyph-name="behance" d="M338.182 715.506c88.066 0 164.308-24.873 164.308-127.208 0-51.781-24.055-85.212-70.126-107.228 63.195-17.939 93.773-65.643 93.773-130.062 0-104.375-87.657-149.222-181.023-149.222h-249.114v513.72h242.182zM323.503 507.978c40.364 0 68.905 17.532 68.905 61.158 0 47.293-36.695 58.711-77.466 58.711h-106.006v-119.87h114.567zM329.62 289.036c46.071 0 83.582 16.31 83.582 68.090 0 52.594-31.395 73.387-81.135 73.387h-123.13v-141.477h120.683zM833.961 317.17h90.104c-27.723-85.214-85.211-125.17-174.093-125.17-117.422 0-190.402 79.504-190.402 195.297 0 111.712 77.057 196.924 190.401 196.924 116.606 0 181.025-91.736 181.025-201.818 0-6.524-0.408-13.046-0.815-19.163h-268.275c0-59.525 31.394-94.59 91.327-94.59 30.987 0 70.943 16.716 80.728 48.52zM641.113 680.848v-50.554h208.341v50.554h-208.341zM661.906 427.659h166.347c-4.484 49.334-30.171 79.505-81.542 79.505-48.927 0-81.543-30.578-84.805-79.505z" />
<glyph unicode="&#xe630;" glyph-name="issuu" d="M512 860.511h-412.511v-412.51c0-227.816 184.694-412.512 412.511-412.512s412.511 184.695 412.511 412.512c0 227.817-184.695 412.51-412.511 412.51zM512 155.806c-161.367 0-292.195 130.829-292.195 292.195s130.829 292.194 292.195 292.194c161.366 0 292.195-130.828 292.195-292.194s-130.829-292.195-292.195-292.195zM512 651.802c-112.566 0-203.799-91.255-203.799-203.801s91.233-203.801 203.799-203.801c112.565 0 203.799 91.256 203.799 203.801s-91.234 203.801-203.799 203.801zM512 337.505c-61.003 0-110.494 49.476-110.494 110.496 0 61.021 49.491 110.492 110.494 110.492 61.041 0 110.494-49.471 110.494-110.492s-49.453-110.496-110.494-110.496z" />
<glyph unicode="&#xe900;" glyph-name="snapchat" d="M517.015 73.881c-2.26 0-4.411 0.083-6.052 0.162-1.302-0.111-2.643-0.162-3.991-0.162-47.45 0-79.18 22.437-107.183 42.244-20.068 14.178-38.996 27.561-61.171 31.251-10.89 1.808-21.725 2.722-32.193 2.722-18.857 0-33.761-2.927-44.642-5.054-6.695-1.305-12.471-2.429-16.933-2.429-4.676 0-10.356 1.036-12.719 9.12-1.879 6.373-3.223 12.548-4.523 18.498-3.248 14.861-5.601 23.932-11.17 24.793-59.515 9.184-94.683 22.712-101.686 39.094-0.735 1.724-1.145 3.453-1.235 5.166-0.274 4.885 3.173 9.167 7.987 9.966 47.269 7.783 89.292 32.766 124.921 74.277 27.598 32.138 41.152 62.842 42.606 66.233 0.066 0.151 0.14 0.312 0.214 0.459 6.869 13.935 8.232 25.974 4.073 35.777-7.667 18.086-33.068 26.144-49.873 31.477-4.176 1.321-8.13 2.573-11.281 3.825-14.897 5.882-39.393 18.316-36.129 35.474 2.375 12.512 18.928 21.226 32.299 21.226 3.718 0 7.006-0.652 9.779-1.953 15.115-7.081 28.709-10.67 40.404-10.67 14.545 0 21.567 5.539 23.265 7.113-0.417 7.758-0.929 15.958-1.425 23.718 0 0.007-0.008 0.1-0.008 0.1-3.417 54.304-7.672 121.882 9.612 160.638 51.739 116.001 161.461 125.021 193.842 125.021 0.864 0 14.117 0.133 14.117 0.133 0.598 0.008 1.247 0.019 1.921 0.019 32.475 0 142.424-9.032 194.192-125.104 17.288-38.779 13.024-106.414 9.6-160.775l-0.161-2.6c-0.47-7.385-0.9-14.37-1.268-21.14 1.599-1.476 8.026-6.55 21.105-7.065 11.146 0.429 23.959 3.999 38.066 10.604 4.358 2.049 9.188 2.474 12.467 2.474 4.956 0 9.996-0.964 14.197-2.718l0.227-0.087c11.972-4.25 19.813-12.739 19.982-21.662 0.147-8.315-6.031-20.746-36.432-32.75-3.109-1.234-7.084-2.495-11.281-3.825-16.817-5.337-42.192-13.392-49.864-31.468-4.167-9.805-2.797-21.838 4.074-35.769 0.078-0.151 0.14-0.307 0.213-0.467 2.116-4.96 53.312-121.688 167.53-140.505 4.812-0.803 8.266-5.092 7.993-9.966-0.103-1.751-0.524-3.5-1.264-5.211-6.957-16.294-42.123-29.801-101.658-38.998-5.589-0.862-7.942-9.895-11.16-24.677-1.335-6.106-2.689-12.093-4.541-18.383-1.73-5.917-5.584-8.809-11.772-8.809h-0.935c-4.026 0-9.736 0.732-16.936 2.141-12.583 2.449-26.699 4.73-44.648 4.73-10.462 0-21.293-0.918-32.199-2.724-22.15-3.688-41.074-17.050-61.108-31.212-28.051-19.834-59.793-42.272-107.245-42.272z" />
<glyph unicode="&#xe901;" glyph-name="trip-advisor" d="M316.932 438.881c-14.212 0-25.775-11.562-25.775-25.774s11.563-25.775 25.775-25.775c14.213 0 25.776 11.562 25.776 25.775s-11.562 25.774-25.776 25.774zM316.932 405.93c-3.957 0-7.176 3.22-7.176 7.177s3.219 7.176 7.176 7.176c3.958 0 7.177-3.219 7.177-7.176s-3.219-7.177-7.177-7.177zM316.932 504.783c-50.551 0-91.677-41.126-91.677-91.677s41.125-91.678 91.677-91.678c50.552 0 91.678 41.126 91.678 91.678 0.001 50.551-41.126 91.677-91.678 91.677zM316.932 340.027c-40.295 0-73.078 32.783-73.078 73.079s32.783 73.078 73.078 73.078c40.296 0 73.079-32.783 73.079-73.078s-32.783-73.079-73.079-73.079zM712.348 438.881c-14.213 0-25.776-11.562-25.776-25.774s11.563-25.775 25.776-25.775c14.212 0 25.774 11.562 25.774 25.775s-11.562 25.774-25.774 25.774zM712.348 405.93c-3.957 0-7.178 3.22-7.178 7.177s3.221 7.176 7.178 7.176c3.956 0 7.176-3.219 7.176-7.176s-3.22-7.177-7.176-7.177zM712.348 504.783c-50.552 0-91.679-41.126-91.679-91.677s41.127-91.678 91.679-91.678c50.55 0 91.677 41.126 91.677 91.678 0 50.551-41.127 91.677-91.677 91.677zM712.348 340.027c-40.297 0-73.079 32.783-73.079 73.079s32.782 73.078 73.079 73.078c40.294 0 73.077-32.783 73.077-73.078s-32.783-73.079-73.077-73.079zM867.771 523.198c6.314 23.707 17.688 46.208 33.054 65.311 2.243 2.789 2.688 6.618 1.142 9.846-1.547 3.228-4.808 5.282-8.388 5.282h-125.453c-77.34 43.101-164.929 65.883-253.486 65.883s-176.146-22.782-253.487-65.883h-125.452c-3.58 0-6.841-2.054-8.388-5.282s-1.102-7.058 1.142-9.846c15.368-19.104 26.74-41.604 33.055-65.31-22.101-31.11-35.108-69.111-35.108-110.093 0-105.059 85.472-190.532 190.531-190.532 60.167 0 113.9 28.041 148.843 71.732l40.919-67.265c1.688-2.774 4.699-4.468 7.945-4.468s6.257 1.693 7.945 4.468l40.919 67.265c34.943-43.691 88.677-71.732 148.844-71.732 105.059 0 190.53 85.474 190.53 190.532 0 40.982-13.007 78.982-35.107 110.092zM853.679 540.748c-16.597 18.359-36.71 33.48-59.268 44.291h80.92c-9.029-13.768-16.328-28.713-21.652-44.291zM153.949 585.038h80.919c-22.558-10.81-42.67-25.931-59.267-44.29-5.323 15.578-12.623 30.523-21.652 44.29zM316.932 241.174c-94.804 0-171.932 77.128-171.932 171.933 0 38.052 12.434 73.25 33.441 101.762 0.447 0.484 0.837 1.014 1.172 1.578 31.407 41.63 81.271 68.591 137.319 68.591 94.804 0 171.933-77.128 171.933-171.932 0-35.719-10.952-68.925-29.669-96.445-0.218-0.281-0.422-0.571-0.605-0.873-31.034-45.032-82.953-74.614-141.659-74.614zM514.64 249.768l-37.083 60.96c18.925 29.589 29.908 64.725 29.908 102.379 0 105.059-85.472 190.531-190.532 190.531-4.547 0-9.056-0.171-13.524-0.486-0.529 0.177-1.080 0.304-1.647 0.384 66.454 31.082 139.32 47.386 212.879 47.386 73.56 0 146.425-16.305 212.88-47.386-0.567-0.080-1.118-0.207-1.647-0.384-4.469 0.315-8.977 0.486-13.524 0.486-105.060 0-190.532-85.472-190.532-190.531 0-37.654 10.982-72.791 29.908-102.38l-37.086-60.959zM712.348 241.174c-58.709 0-110.631 29.585-141.664 74.621-0.181 0.298-0.382 0.585-0.598 0.862-18.719 27.521-29.672 60.729-29.672 96.449 0 94.804 77.129 171.932 171.934 171.932 56.048 0 105.914-26.963 137.321-68.594 0.333-0.562 0.723-1.091 1.168-1.573 21.008-28.513 33.442-63.711 33.442-101.765 0.001-94.804-77.128-171.932-171.931-171.932z" />
<glyph unicode="&#xe902;" glyph-name="medium" d="M666.446 234.443l230.756-115.355c0.393-0.195 0.77-0.361 1.086-0.496 0.045 0.346 0.061 0.753 0.061 1.205v491.507l-231.903-376.861zM651.931 776.928l-163.718-264.896 157.447-255.884 246.568 400.639zM392.966 371.037l213.624-106.808-213.624 347.127zM125.711 244.98c0-3.604 3.55-9.331 6.775-10.959l230.243-115.113c0.422-0.196 0.792-0.377 1.108-0.498 0.045 0.347 0.068 0.754 0.068 1.206v534.104l-238.179 119.085-0.015-527.825z" />
<glyph unicode="&#xe903;" glyph-name="yelp" d="M330.523 781.569c37.019 29.098 108.196 37.437 137.474 31.758 29.317-5.643 44.625-22.038 44.808-42l1.688-254.534c0.145-19.99-10.242-38.364-23.080-40.837-12.902-2.422-31.89 9.461-42.323 26.465l-133.547 218.252c-10.354 17.028-31.237 24.538 14.98 60.896zM286.186 297.568l134.447 47.58c18.74 6.643 35.514 25.135 37.401 41.191 1.823 16.064-11.796 35.131-30.273 42.434l-142.029 56.317c-18.485 7.308-39.814-10.023-45.437-38.379 0 0-3.377-98.76 0-119.195 3.409-20.438 27.158-36.621 45.891-29.948zM520.705 273.787c0.398 20.055-10.306 37.346-23.782 38.58-13.483 1.242-34.884-10.26-47.659-25.52l-93.788-112.465c-12.775-15.283-6.436-51.18 12.177-57.973l98.074-34.062c18.668-6.795 51.537 13.307 51.919 33.291l3.059 158.149zM753.84 299.975l-117.604 33.816c-19.066 5.479-40.705 4.953-48.049-1.242-7.32-6.133-5.512-25.518 4.102-43.008l74.213-135.834c9.605-17.498 47.984-14.486 58.553 2.479 0 0 44.729 65.992 52.965 90.738 8.226 24.777-5.121 47.57-24.18 53.051zM782.487 490.972c-5.295 17.183-42.066 67.845-61.986 85.111-19.887 17.307-42.648 15.137-55.48-0.056l-75.789-90.284c-12.838-15.192-16.264-39.289-7.709-53.457 8.561-14.17 31.387-22.197 50.758-17.85l131.086 24.309c23.668 5.671 24.504 35.044 19.12 52.227z" />
<glyph unicode="&#xe904;" glyph-name="houzz" d="M512 332.594l200.298 115.406v-231.203l-200.298-115.797v231.594zM311.702 448v-231.203l200.298 115.797-200.298 115.406zM512 795v-231.203l-200.298-115.797v231.203l200.298 115.797zM512 563.797l200.298 115.406v-231.203l-200.298 115.797z" />
<glyph unicode="&#xe905;" glyph-name="twitch" d="M636.5 219.75h-124.5l-62.25-83h-83v83h-145.25v433.015l41.5 106.485h539.5v-373.5l-166-166zM740.25 406.5v290.5h-435.75v-394.25h124.5v-83l83 83h124.5l103.75 103.75zM574.25 593.25h62.25v-166h-62.25v166zM449.75 593.25h62.25v-166h-62.25v166z" />
<glyph unicode="&#xe906;" glyph-name="steam" d="M810.472 537.388c0-35.74-29.082-64.724-64.959-64.724-35.907 0-64.975 28.983-64.975 64.724s29.082 64.716 64.975 64.716c35.877-0.008 64.959-28.977 64.959-64.716zM784.299 428.027l-78.67-67.031c0.854-5.347 1.425-10.785 1.425-16.361 0-57.068-46.442-103.335-103.708-103.335-49.405 0-90.66 34.43-101.111 80.499l-194.466 65.729c-15.356-11.616-34.46-18.609-55.24-18.609-50.556 0-91.528 40.836-91.528 91.186s40.98 91.167 91.528 91.167c43.464 0 79.76-30.175 89.136-70.619l187.847-63.508c18.297 18.479 43.532 30.065 71.495 30.689l28.13 85.21c-0.083 1.695-0.259 3.363-0.259 5.062 0 64.388 52.43 116.597 117.069 116.597 64.631-0.003 117.053-52.204 117.053-116.599 0-51.013-32.922-94.248-78.701-110.077zM310.069 491.312c-10.931 19.618-31.916 32.902-56.017 32.902-35.405 0-64.106-28.587-64.106-63.844 0-35.252 28.702-63.832 64.106-63.832 6.535 0 12.843 0.976 18.776 2.788l-30.446 10.291c-24.535 13.086-33.774 43.501-20.627 67.96 13.147 24.421 43.692 33.619 68.212 20.521l20.102-6.786zM654.655 537.841c0-50.015 40.691-90.572 90.904-90.572 50.205 0 90.934 40.558 90.934 90.572 0 50.026-40.736 90.58-90.934 90.58-50.213-0.008-90.904-40.562-90.904-90.58zM656.438 335.769c0 38.070-30.987 68.95-69.21 68.95-5.362 0-10.542-0.67-15.555-1.812l38.681-13.071c24.535-13.102 33.744-43.524 20.611-67.945-13.146-24.466-43.691-33.638-68.204-20.551l-41.673 14.092c8.69-28.153 35.016-48.613 66.14-48.613 38.222-0.002 69.21 30.878 69.21 68.95z" />
<glyph unicode="&#xe907;" glyph-name="foursquare" d="M309.16 825.023c-37.65 0-68.846-31.195-68.846-68.846v-644.352c0-17.48 12.371-33.48 26.893-38.726 14.254-5.108 33.886-0.94 45.18 11.833l217.293 258.173h118.328c32.676 0 61.451 23.934 67.771 55.937l66.693 344.227c8.068 41.82-25.145 81.754-67.771 81.754h-405.541zM309.16 756.178h405.542l-26.893-137.69h-224.823c-8.605 0-16.136-7.53-16.136-16.136v-36.574c0-8.605 7.53-16.136 16.136-16.136h211.915l-26.893-137.69h-135.539c-10.221 0.268-20.171-4.034-26.893-11.834l-176.416-211.916v567.976z" />
<glyph unicode="&#xe908;" glyph-name="500px" d="M326.216 838c-4.933 0-9.649-1.958-13.131-5.441-3.482-3.482-5.441-8.198-5.441-13.13l0.146-315.279c0-8.852 6.238-16.469 14.944-18.21 8.632-1.74 17.337 2.904 20.82 11.028 34.821 83.064 115.492 136.746 205.519 136.746 122.891 0 222.857-99.965 222.857-222.857 0-122.889-99.967-222.857-222.857-222.857-47.806 0-92.929 15.309-130 42.078v180.778c0 71.676 58.326 130.002 130 130.002 71.676 0 130-58.326 130-130.002 0-71.674-58.324-129.999-130-129.999-16.105 0-32.064 3.047-47.299 8.994-9.576 3.774-20.385-0.942-24.084-10.446-3.773-9.576 0.943-20.312 10.446-24.083 19.66-7.691 40.189-11.609 60.937-11.609 92.133 0 167.143 75.013 167.143 167.144 0 92.134-75.010 167.143-167.143 167.143-92.131 0-167.143-75.009-167.143-167.143v-147.046c-15.743 17.917-28.872 38.521-38.376 61.444-3.989 9.43-14.871 13.928-24.302 9.939-9.503-3.918-13.929-14.8-10.011-24.232 40.553-97.282 134.715-160.104 239.832-160.104 143.348 0 260 116.651 260 259.998 0 143.349-116.652 260.001-260 260.001-81.104 0-155.681-37.287-204.213-98.878l-0.071 228.877h371.427c10.229 0 18.572 8.344 18.572 18.572s-8.344 18.571-18.572 18.571h-390zM549.073 763.715c-40.407 0-80.016-6.821-117.813-20.168-9.647-3.411-14.726-14-11.316-23.65 3.41-9.719 14.074-14.725 23.722-11.317 33.733 11.898 69.208 17.992 105.408 17.992 86.91 0 167.941-34.532 228.080-97.354 3.627-3.846 8.488-5.733 13.35-5.733 4.643 0 9.285 1.67 12.84 5.152 7.4 7.11 7.689 18.862 0.58 26.262-67.178 70.149-157.713 108.816-254.851 108.816zM511.93 466.57c-4.716 0-9.504-1.812-13.131-5.44-7.255-7.254-7.255-19.006 0-26.26l24.013-24.014-24.012-24.011c-7.255-7.253-7.255-19.006 0-26.262 3.627-3.626 8.343-5.441 13.131-5.441s9.503 1.815 13.13 5.441l24.012 24.014 24.014-24.014c3.627-3.626 8.342-5.441 13.129-5.441 4.789 0 9.504 1.815 13.131 5.441 7.256 7.256 7.256 19.009 0 26.262l-24.012 24.012 24.012 24.014c7.256 7.254 7.256 19.006 0 26.26-7.254 7.256-19.006 7.256-26.26 0l-24.014-24.012-24.012 24.012c-3.627 3.627-8.416 5.439-13.131 5.439zM214.352 418.983c-10.229-0.292-18.281-8.923-17.991-19.152 5.948-191.664 160.832-341.831 352.712-341.831 107.004 0 206.971 47.88 274.438 131.233 6.455 8.053 5.223 19.733-2.758 26.188-7.98 6.457-19.66 5.151-26.115-2.755-60.357-74.723-149.879-117.522-245.564-117.522-171.713 0-310.272 134.352-315.569 305.848-0.292 10.228-8.851 18.644-19.153 17.991z" />
</font>
</defs>
</svg>
